Lame 3.100 Неверная инструкция!

Простые/общие вопросы по UNIX системам. Спросите здесь, если вы новичок

Модераторы: vadim64, terminus

Правила форума
Убедительная просьба юзать теги [cоde] при оформлении листингов.
Сообщения не оформленные должным образом имеют все шансы быть незамеченными.
Аватара пользователя
Elimelech
лейтенант
Сообщения: 655
Зарегистрирован: 2009-11-28 18:42:07
Откуда: Украина
Контактная информация:

Lame 3.100 Неверная инструкция!

Непрочитанное сообщение Elimelech » 2018-10-22 21:40:27

Код: Выделить всё

# lame -h -b 80 R_2018070.wav audio_01.mp3
Неверная инструкция

Что они там в 3.100 версии сделали?

Хостинговая компания Host-Food.ru
Хостинг HostFood.ru
 

Услуги хостинговой компании Host-Food.ru

Хостинг HostFood.ru

Тарифы на хостинг в России, от 12 рублей: https://www.host-food.ru/tariffs/hosting/
Тарифы на виртуальные сервера (VPS/VDS/KVM) в РФ, от 189 руб.: https://www.host-food.ru/tariffs/virtualny-server-vps/
Выделенные сервера, Россия, Москва, от 2460 рублей (8 CPU, 8Gb RAM, 2x500Gb HDD, RAID 3ware 9750):
https://www.host-food.ru/tariffs/vydelennyi-server-ds/
Недорогие домены в популярных зонах: https://www.host-food.ru/domains/

guest
проходил мимо

Lame 3.100 Неверная инструкция!

Непрочитанное сообщение guest » 2018-10-23 13:31:45

криворукий и рукожопый малыш:

tada.wav - from C:\Windows\Media

Код: Выделить всё

# soxi -T tada.wav

Input File     : 'tada.wav'
Channels       : 2
Sample Rate    : 44100
Precision      : 16-bit
Duration       : 00:00:01.62 = 71296 samples = 121.252 CDDA sectors
File Size      : 285k
Bit Rate       : 1.41M
Sample Encoding: 16-bit Signed Integer PCM

# lame -h -b 80 tada.wav audio_01.mp3
LAME 3.100 64bits (http://lame.sf.net)
Resampling:  input 44.1 kHz  output 32 kHz
Using polyphase lowpass filter, transition band: 13548 Hz - 13935 Hz
Encoding tada.wav to audio_01.mp3
Encoding as 32 kHz j-stereo MPEG-1 Layer III (12.8x)  80 kbps qval=2
    Frame          |  CPU time/estim | REAL time/estim | play/CPU |    ETA
    46/46    (100%)|    0:00/    0:00|    0:00/    0:00|   14.131x|    0:00
------------------------------------------------------------------------------------------------------------------------------------
   kbps        LR    MS  %     long switch short %
   80.0       10.9  89.1        96.7   2.2   1.1
Writing LAME Tag...done
ReplayGain: +13.1dB
# soxi -T audio_01.mp3

Input File     : 'audio_01.mp3'
Channels       : 2
Sample Rate    : 32000
Precision      : 16-bit
Duration       : 00:00:01.69 = 54144 samples ~ 126.9 CDDA sectors
File Size      : 16.9k
Bit Rate       : 80.0k
Sample Encoding: MPEG audio (layer I, II or III)

#
OS FreeBSD 11.1 & 11.2 without problems:

Код: Выделить всё

#  uname -mrs
FreeBSD 11.2-RELEASE-p4 amd64
#
lame info

Код: Выделить всё

 lame --license
LAME 64bits version 3.100 (http://lame.sf.net)

Copyright (c) 1999-2011 by The LAME Project
Copyright (c) 1999,2000,2001 by Mark Taylor
Copyright (c) 1998 by Michael Cheng
Copyright (c) 1995,1996,1997 by Michael Hipp: mpglib

This library is free software; you can redistribute it and/or
modify it under the terms of the GNU Library General Public
License as published by the Free Software Foundation; either
version 2 of the License, or (at your option) any later version.

This library is distributed in the hope that it will be useful,
but WITHOUT ANY WARRANTY; without even the implied warranty of
MERCHANTABILITY or FITNESS FOR A PARTICULAR PURPOSE. See the GNU
Library General Public License for more details.

You should have received a copy of the GNU Library General Public
License along with this program. If not, see
<http://www.gnu.org/licenses/>.

Аватара пользователя
Elimelech
лейтенант
Сообщения: 655
Зарегистрирован: 2009-11-28 18:42:07
Откуда: Украина
Контактная информация:

Lame 3.100 Неверная инструкция!

Непрочитанное сообщение Elimelech » 2018-10-23 14:58:39

это кто кривожопый? :(
Пересобрал пакет LAME через порты и всё заработало!

guest
проходил мимо

Lame 3.100 Неверная инструкция!

Непрочитанное сообщение guest » 2018-10-23 20:13:32

это кто кривожопый?
насчет жопы не знаю, а вот с руками и головой точно проблемы
Пересобрал пакет LAME через порты и всё заработало!
FreeBSD уже много лет не имеет в своих репозиториях пакета "lame"
из-за лицензии и патента, хотя последний и истек в 2017.

Аватара пользователя
Elimelech
лейтенант
Сообщения: 655
Зарегистрирован: 2009-11-28 18:42:07
Откуда: Украина
Контактная информация:

Lame 3.100 Неверная инструкция!

Непрочитанное сообщение Elimelech » 2018-10-23 20:17:20

эТО У ТЕБЯ СО ЗРЕНИЕМ СТАРИЧЁК ПАРШИВЕНЬКИЙ НЕ ВСЁ ВПОРЯДКЕ, А В ПОРТАХ LAME есть: https://svnweb.freebsd.org/ports/head/audio/lame/

guest
проходил мимо

Lame 3.100 Неверная инструкция!

Непрочитанное сообщение guest » 2018-10-23 21:28:37

эТО У ТЕБЯ СО ЗРЕНИЕМ СТАРИЧЁК ПАРШИВЕНЬКИЙ НЕ ВСЁ ВПОРЯДКЕ, А В ПОРТАХ LAME есть: https://svnweb.freebsd.org/ports/head/audio/lame/
Плохо когда в голове опилки, и чукча не различает порты и пакеты, при этом
задает вопрос не указывая ОС, версию и откуда взял ПО которое возвращает
ошибку.

Аватара пользователя
Elimelech
лейтенант
Сообщения: 655
Зарегистрирован: 2009-11-28 18:42:07
Откуда: Украина
Контактная информация:

Lame 3.100 Неверная инструкция!

Непрочитанное сообщение Elimelech » 2018-10-23 22:05:48

сам ты чукча, но на больных не обижаются. :)