с каких форматов можно конвертировать в flv?

FreeBSD и прочие в роли десктопа.
Правила форума
Убедительная просьба юзать теги [code] при оформлении листингов.
Сообщения не оформленные должным образом имеют все шансы быть незамеченными.
Аватара пользователя
ProFTP
подполковник
Сообщения: 3388
Зарегистрирован: 2008-04-13 1:50:04
Откуда: %&й
Контактная информация:

с каких форматов можно конвертировать в flv?

Непрочитанное сообщение ProFTP » 2009-12-08 16:18:18

с каких форматов можно конвертировать в flv?

почему rm нелья? (хотя кодек стоит)

пишет

Код: Выделить всё

ffmpeg -i /home/1.rm -ar 22050 -ab 32k -f flv -s 400x300 -y /home/2.flv
FFmpeg version SVN-r14424, Copyright (c) 2000-2008 Fabrice Bellard, et al.

  configuration: --cc=cc --prefix=/usr/local --disable-debug --enable-memalign-hack --enable-shared --enable-postproc --extra-cflags=-I/usr/local/include
/vorbis -I/usr/local/include --extra-ldflags=-L/usr/local/lib -la52 --extra-libs=-pthread --enable-gpl --enable-pthreads --enable-swscale --mandir=/usr
/local/man --enable-liba52 --enable-liba52bin --enable-libfaac --enable-libfaad --enable-libfaadbin --enable-libamr-nb --enable-nonfree --enable-libamr-wb 
--enable-nonfree --disable-mmx --enable-libgsm --enable-libmp3lame --enable-libtheora --enable-libvorbis --enable-libx264 --enable-libxvid

  libavutil version: 49.7.0
  libavcodec version: 51.61.0
  libavformat version: 52.18.0
  libavdevice version: 52.0.0
  built on Dec  5 2009 13:18:43, gcc: 4.2.1 20070719  [FreeBSD]
[NULL @ 0x49709010]Unsupported video codec
Input #0, rm, from '/home/1.rm':
  Duration: 02:11:25.47, start: 0.000000, bitrate: 755 kb/s
    Stream #0.0: Video: RV40 / 0x30345652, 852x488, 682 kb/s, 12.00 tb(r)
    Stream #0.1: Audio: cook, 44100 Hz, mono, 64 kb/s
    Stream #0.2: Data: 0x0000
swScaler: Unknown format is not supported as input pixel format
Cannot get resampling context
Pеrl FAQ
perl -e 'print join"",map $$_[rand@$_],([0..9,'a'..'z','A'..'Z'])x30'
ИзображениеИзображение

Хостинговая компания Host-Food.ru
Хостинг HostFood.ru
 

Услуги хостинговой компании Host-Food.ru

Хостинг HostFood.ru

Тарифы на хостинг в России, от 12 рублей: https://www.host-food.ru/tariffs/hosting/
Тарифы на виртуальные сервера (VPS/VDS/KVM) в РФ, от 189 руб.: https://www.host-food.ru/tariffs/virtualny-server-vps/
Выделенные сервера, Россия, Москва, от 2000 рублей (HP Proliant G5, Intel Xeon E5430 (2.66GHz, Quad-Core, 12Mb), 8Gb RAM, 2x300Gb SAS HDD, P400i, 512Mb, BBU):
https://www.host-food.ru/tariffs/vydelennyi-server-ds/
Недорогие домены в популярных зонах: https://www.host-food.ru/domains/

Аватара пользователя
ADRE
майор
Сообщения: 2645
Зарегистрирован: 2007-07-26 8:53:49
Контактная информация:

Re: с каких форматов можно конвертировать в flv?

Непрочитанное сообщение ADRE » 2009-12-08 17:08:50

в flv да впринциепе с любых главное чтоб библиотеки стояли. попробуй обновить дерево portupgrade -rf чтоб точно быть уверенным, да и кстате примочки которые в ffmpeg опысываются ставяться путем правки маке файла, пытался как-то на видео наложить картинку при запуске ))) так. что вот...
//del

Аватара пользователя
ProFTP
подполковник
Сообщения: 3388
Зарегистрирован: 2008-04-13 1:50:04
Откуда: %&й
Контактная информация:

Re: с каких форматов можно конвертировать в flv?

Непрочитанное сообщение ProFTP » 2009-12-08 18:13:52

вот я попробовал на десктопе, все видео работает mplayer но конвертироватся не хочет...
Pеrl FAQ
perl -e 'print join"",map $$_[rand@$_],([0..9,'a'..'z','A'..'Z'])x30'
ИзображениеИзображение

Аватара пользователя
ADRE
майор
Сообщения: 2645
Зарегистрирован: 2007-07-26 8:53:49
Контактная информация:

Re: с каких форматов можно конвертировать в flv?

Непрочитанное сообщение ADRE » 2009-12-08 18:17:58

хмм... странно ... на работу приду посмотрю чё там с моим риппером для двд ))) может тоже не умеет.... (файлопомойка рипает иногда ночью киношки для меня и торрента )
//del

Аватара пользователя
ProFTP
подполковник
Сообщения: 3388
Зарегистрирован: 2008-04-13 1:50:04
Откуда: %&й
Контактная информация:

Re: с каких форматов можно конвертировать в flv?

Непрочитанное сообщение ProFTP » 2009-12-10 21:11:04

вот вообщем он не хочет конвертировать

если бы узнать можно ли с rm? или с каких форматов нелья?

вообще-то сам ffmpeg поддерживает почти все форматы

Код: Выделить всё

Input #0, rm, from '/home/22l.rm':
  Duration: 01:32:12.89, start: 0.000000, bitrate: 135 kb/s
    Stream #0.0: Audio: cook, 44100 Hz, stereo, 44 kb/s
    Stream #0.1: Video: RV30 / 0x30335652, 320x240, 180 kb/s, 12.00 tb(r)
swScaler: Unknown format is not supported as input pixel format
Cannot get resampling context
Pеrl FAQ
perl -e 'print join"",map $$_[rand@$_],([0..9,'a'..'z','A'..'Z'])x30'
ИзображениеИзображение